FEED Teen Choice Awards 2019 BACKHAUL 720p HDTV MPA2.0 MPEG2-TrollHD

Discussion in 'Interviews / TV shows / Others' started by CELOBRAZiL, Aug 13, 2019 at 4:53 PM.

  1. CELOBRAZiL

    CELOBRAZiL Well-Known Member Capper V . I . P. Donor

    Joined:
    Oct 2, 2013
    Messages:
    7,456
    Likes Received:
    24,554
    Teen Choice Awards 2019 BACKHAUL 720p HDTV MPA2.0 MPEG2-TrollHD

    [​IMG]



    Format : Matroska
    Format version : Version 4
    File size : 36.8 GiB
    Duration : 1 h 52 min
    Overall bit rate mode : Variable
    Overall bit rate : 46.9 Mb/s
    Encoded date : UTC 2019-08-12 04:15:53
    Writing application : mkvmerge v30.0.0 ('Interstellar') 64-bit
    Writing library : libebml v1.3.6 + libmatroska v1.4.9

    Video
    ID : 1
    Format : MPEG Video
    Format version : Version 2
    Format profile : [email protected]
    Format settings : BVOP
    Format settings, BVOP : Yes
    Format settings, Matrix : Default
    Format settings, GOP : M=3, N=60
    Codec ID : V_MPEG2
    Codec ID/Info : MPEG 1 or 2 Video
    Duration : 1 h 52 min
    Bit rate mode : Variable
    Bit rate : 46.5 Mb/s
    Maximum bit rate : 47.5 Mb/s
    Width : 1 280 pixels
    Height : 720 pixels
    Display aspect ratio : 16:9
    Frame rate mode : Constant
    Frame rate : 59.940 (60000/1001) FPS
    Color space : YUV
    Chroma subsampling : 4:2:0
    Bit depth : 8 bits
    Scan type : Progressive
    Compression mode : Lossy
    Bits/(Pixel*Frame) : 0.841
    Time code of first frame : 00:00:00;00
    Time code source : Group of pictures header
    GOP, Open/Closed : Open
    Stream size : 36.5 GiB (99%)
    Language : English
    Default : Yes
    Forced : No

    Audio
    ID : 2
    Format : MPEG Audio
    Format version : Version 1
    Format profile : Layer 2
    Codec ID : A_MPEG/L2
    Codec ID/Hint : MP2
    Duration : 1 h 52 min
    Bit rate mode : Constant
    Bit rate : 384 kb/s
    Channel(s) : 2 channels
    Sampling rate : 48.0 kHz
    Frame rate : 41.667 FPS (1152 SPF)
    Compression mode : Lossy
    Delay relative to video : 17 ms
    Stream size : 309 MiB (1%)
    Language : English
    Default : Yes
    Forced : No



    Link(s):
    Hidden Content:
    You must either reply or click 'Like' to see the hidden information contained here.
     
    Last edited: Aug 14, 2019 at 8:20 AM
  2. Loading...


  3. CELOBRAZiL

    CELOBRAZiL Well-Known Member Capper V . I . P. Donor

    Joined:
    Oct 2, 2013
    Messages:
    7,456
    Likes Received:
    24,554
    :love::love::love:

    I'm uploading... Just wait! :)
     
    ThePixelFarm, eks22 and DETOX like this.
  4. medicine

    medicine miley cyrus, harry styles & louis tomlinson

    Joined:
    Nov 20, 2017
    Messages:
    281
    Likes Received:
    249
  5. KaiKawaii

    KaiKawaii Well-Known Member Uploader

    Joined:
    Jun 1, 2017
    Messages:
    704
    Likes Received:
    1,378
    Thanks celo!! :love:
     
    CELOBRAZiL likes this.
  6. edgar

    edgar Well-Known Member

    Joined:
    Oct 12, 2013
    Messages:
    2,392
    Likes Received:
    2,358
    Thank you so much:love::love:
     
    CELOBRAZiL likes this.
  7. ThePixelFarm

    ThePixelFarm Livin' in a dream... Capper

    Joined:
    Aug 31, 2018
    Messages:
    1,419
    Likes Received:
    2,589
    Many thanks... :victory::super:
     
    CELOBRAZiL likes this.
  8. jeaneyne

    jeaneyne Well-Known Member

    Joined:
    Oct 21, 2013
    Messages:
    1,641
    Likes Received:
    590
  9. CELOBRAZiL

    CELOBRAZiL Well-Known Member Capper V . I . P. Donor

    Joined:
    Oct 2, 2013
    Messages:
    7,456
    Likes Received:
    24,554
    Added GOOGLE DRIVE links! :)
     
    ThePixelFarm likes this.
  10. aturner18

    aturner18 Well-Known Member

    Joined:
    Oct 2, 2014
    Messages:
    1,848
    Likes Received:
    177
    thanks tho im no longer a teen lol
     
    CELOBRAZiL likes this.
  11. multimediafm

    multimediafm Well-Known Member Donor

    Joined:
    Mar 27, 2014
    Messages:
    15,208
    Likes Received:
    1,292
  12. santa321

    santa321 Well-Known Member

    Joined:
    Dec 7, 2013
    Messages:
    1,910
    Likes Received:
    86
    thank you
     
    CELOBRAZiL likes this.
  13. zhxliveing

    zhxliveing Well-Known Member

    Joined:
    Sep 7, 2016
    Messages:
    2,291
    Likes Received:
    198
    thanks
    thank u
     
    CELOBRAZiL likes this.
  14. M:SummerLove

    M:SummerLove Member

    Joined:
    Thursday
    Messages:
    38
    Likes Received:
    1
    Thank you!!!
     
    CELOBRAZiL likes this.
  15. ricky_miamor

    ricky_miamor Member

    Joined:
    Apr 7, 2018
    Messages:
    61
    Likes Received:
    5
  16. buffnfaith

    buffnfaith Member

    Joined:
    Jun 24, 2014
    Messages:
    219
    Likes Received:
    19

Visit original Sharemania.us