[REQUEST] f(x) - LA chA TA 1080p Master ProRes LPCM

Discussion in 'Requests' started by Kenny Sun, Aug 18, 2019.

  1. Kenny Sun

    Kenny Sun Active Member

    Joined:
    Oct 8, 2013
    Messages:
    281
    Likes Received:
    26
    [​IMG]
    General
    Complete name : E:\f(x) - LA chA TA 1080p Master ProRes LPCM.mov
    Format : MPEG-4
    Format profile : QuickTime
    Codec ID : qt 2005.03 (qt )
    File size : 5.18 GiB
    Duration : 3 min 25 s
    Overall bit rate mode : Variable
    Overall bit rate : 217 Mb/s
    Encoded date : UTC 2009-09-03 09:10:22
    Tagged date : UTC 2009-09-03 09:13:55
    Writing library : Apple QuickTime
    TIM : 00:00:00:00
    TSC : 30000
    TSZ : 1001

    Video
    ID : 1
    Format : ProRes
    Format version : Version 0
    Format profile : 422 HQ
    Codec ID : apch
    Duration : 3 min 25 s
    Bit rate mode : Variable
    Bit rate : 215 Mb/s
    Width : 1 920 pixels
    Height : 1 080 pixels
    Display aspect ratio : 16:9
    Frame rate mode : Constant
    Frame rate : 29.970 (30000/1001) FPS
    Color space : YUV
    Chroma subsampling : 4:2:2
    Scan type : Progressive
    Bits/(Pixel*Frame) : 3.462
    Stream size : 5.14 GiB (99%)
    Writing library : adb0
    Language : English
    Encoded date : UTC 2009-09-03 09:10:22
    Tagged date : UTC 2009-09-03 09:10:22
    Color primaries : BT.709
    Transfer characteristics : BT.709
    Matrix coefficients : BT.709

    Audio
    ID : 2
    Format : PCM
    Format settings : Little / Signed
    Codec ID : sowt
    Duration : 3 min 25 s
    Bit rate mode : Constant
    Bit rate : 1 536 kb/s
    Channel(s) : 2 channels
    Channel positions : Front: L R
    Sampling rate : 48.0 kHz
    Bit depth : 16 bits
    Stream size : 37.6 MiB (1%)
    Language : English
    Encoded date : UTC 2009-09-03 09:10:22
    Tagged date : UTC 2009-09-03 09:10:22

    Other
    ID : 3
    Type : Time code
    Format : QuickTime TC
    Duration : 3 min 25 s
    Time code of first frame : 00:00:00:00
    Time code, striped : Yes
    Language : English
    Encoded date : UTC 2009-09-03 09:10:22
    Tagged date : UTC 2009-09-03 09:10:22
     
  2. Loading...


Visit original Sharemania.us