FLAC Gnarls Barkley - Crazy (12") 2006 TIDAL 16b 44.1kHz

Discussion in 'Singles (lossless)' started by Brungor, Aug 13, 2019 at 6:09 PM.

  1. Brungor

    Brungor From The Planet Glamtron

    Joined:
    Dec 9, 2015
    Messages:
    786
    Likes Received:
    387
    [​IMG]
    General
    Complete name : C:\Users\BR8NG0R\Downloads\Music\Gnarls Barkley - Crazy (12-)\1 Crazy (Single Version).flac
    Format : FLAC
    Format/Info : Free Lossless Audio Codec
    File size : 19.0 MiB
    Duration : 3 min 2 s
    Overall bit rate mode : Variable
    Overall bit rate : 875 kb/s
    Album : Crazy (12")
    Album/Performer : Gnarls Barkley
    Part : 1
    Part/Total : 1
    Track name : Crazy (Single Version)
    Track name/Position : 1
    Track name/Total : 2
    Performer : Gnarls Barkley
    Description :
    Recorded date : 2006
    Copyright :
    Cover : Yes
    Cover description : cover.jpg
    Cover type : Cover (front)
    Cover MIME : image/jpeg
    Audio
    Format : FLAC
    Format/Info : Free Lossless Audio Codec
    Duration : 3 min 2 s
    Bit rate mode : Variable
    Bit rate : 863 kb/s
    Channel(s) : 2 channels
    Channel layout : L R
    Sampling rate : 44.1 kHz
    Bit depth : 16 bits
    Compression mode : Lossless
    Stream size : 18.7 MiB (99%)
    Writing library : libFLAC 1.2.1 (UTC 2007-09-17)
    General
    Complete name : C:\Users\BR8NG0R\Downloads\Music\Gnarls Barkley - Crazy (12-)\2 Crazy (Instrumental).flac
    Format : FLAC
    Format/Info : Free Lossless Audio Codec
    File size : 18.7 MiB
    Duration : 3 min 3 s
    Overall bit rate mode : Variable
    Overall bit rate : 855 kb/s
    Album : Crazy (12")
    Album/Performer : Gnarls Barkley
    Part : 1
    Part/Total : 1
    Track name : Crazy (Instrumental)
    Track name/Position : 2
    Track name/Total : 2
    Performer : Gnarls Barkley
    Description :
    Recorded date : 2006
    Copyright :
    Cover : Yes
    Cover description : cover.jpg
    Cover type : Cover (front)
    Cover MIME : image/jpeg
    Audio
    Format : FLAC
    Format/Info : Free Lossless Audio Codec
    Duration : 3 min 3 s
    Bit rate mode : Variable
    Bit rate : 843 kb/s
    Channel(s) : 2 channels
    Channel layout : L R
    Sampling rate : 44.1 kHz
    Bit depth : 16 bits
    Compression mode : Lossless
    Stream size : 18.4 MiB (99%)
    Writing library : libFLAC 1.2.1 (UTC 2007-09-17)

    Hidden Content:
    You must reply before you can see the hidden data contained here.
     
    dennycrane, FreakumBoy and eks22 like this.
  2. dennycrane

    dennycrane Active Member

    Joined:
    Apr 15, 2019
    Messages:
    283
    Likes Received:
    41
    Thank you for this!
     
  3. armeo85

    armeo85 Active Member

    Joined:
    Jan 10, 2019
    Messages:
    169
    Likes Received:
    27
  4. musicrambler

    musicrambler Active Member

    Joined:
    Mar 24, 2017
    Messages:
    547
    Likes Received:
    30
  5. HILife

    HILife Active Member

    Joined:
    Jul 6, 2017
    Messages:
    498
    Likes Received:
    52

Visit original Sharemania.us